<?xml version="1.0" standalone="no"?>
<!DOCTYPE svg PUBLIC "-//W3C//DTD SVG 1.1//EN" "http://www.w3.org/Graphics/SVG/1.1/DTD/svg11.dtd" >
<svg xmlns="http://www.w3.org/2000/svg" xmlns:xlink="http://www.w3.org/1999/xlink" version="1.1">
<metadata></metadata>
<defs>
<font id="euclid_circular_aregular" horiz-adv-x="1290" >
<font-face units-per-em="2048" ascent="1499" descent="-549" />
<missing-glyph horiz-adv-x="493" />
<glyph horiz-adv-x="0" />
<glyph unicode="&#xd;" horiz-adv-x="681" />
<glyph unicode=" "  horiz-adv-x="493" />
<glyph unicode="&#x09;" horiz-adv-x="493" />
<glyph unicode="&#xa0;" horiz-adv-x="493" />
<glyph unicode="!" horiz-adv-x="555" d="M125 137q0 61 45 107.5t106.5 46.5t106.5 -46t45 -108q0 -63 -44 -108t-107.5 -45t-107.5 45t-44 108zM188 872v582h179v-582l-35 -417h-109z" />
<glyph unicode="&#x22;" horiz-adv-x="845" d="M135 948v506h160v-506h-160zM549 948v506h160v-506h-160z" />
<glyph unicode="#" horiz-adv-x="1509" d="M68 410v149h284l111 350h-246v150h293l123 395h162l-123 -395h368l125 395h160l-123 -395h238v-150h-285l-108 -350h245v-149h-295l-125 -410h-161l127 410h-371l-125 -410h-164l127 410h-237zM516 559h369l108 350h-368z" />
<glyph unicode="$" horiz-adv-x="1069" d="M92 410h176q27 -217 217 -254v510l-69 26q-315 127 -316 414q0 164 108.5 261t276.5 110v157h111v-161q147 -23 248.5 -118t101.5 -247h-176q-27 158 -174 192v-479l51 -20q166 -68 249 -170.5t83 -255.5q0 -180 -105.5 -280.5t-277.5 -112.5v-162h-111v164 q-168 18 -278.5 127.5t-114.5 298.5zM276 1106q0 -84 48.5 -138.5t160.5 -103.5v443q-96 -10 -152.5 -65.5t-56.5 -135.5zM596 152q88 10 147.5 68t59.5 142q0 94 -51.5 153.5t-155.5 105.5v-469z" />
<glyph unicode="%" horiz-adv-x="2029" d="M66 1067q0 168 117.5 285.5t285.5 117.5q166 0 284.5 -117.5t118.5 -285.5q0 -166 -118.5 -284.5t-284.5 -118.5q-168 0 -285.5 118.5t-117.5 284.5zM227 1067q0 -100 70 -172t172 -72q98 0 170 73t72 171t-72 171t-170 73q-102 0 -172 -72t-70 -172zM459 0l921 1454h191 l-922 -1454h-190zM1157 387q0 168 118 286t286 118q166 0 284.5 -118t118.5 -286q0 -166 -118.5 -284.5t-284.5 -118.5q-168 0 -286 118.5t-118 284.5zM1319 387q0 -100 70 -172t172 -72q98 0 169.5 73t71.5 171t-71.5 171t-169.5 73q-102 0 -172 -72t-70 -172z" />
<glyph unicode="&#x26;" horiz-adv-x="1525" d="M135 397q0 143 84 238.5t225 177.5l11 6q-176 164 -176 330q0 143 106.5 236.5t264 93.5t258 -97.5t100.5 -240.5q0 -215 -281 -357l309 -303l172 219h205l-262 -331l379 -369h-232l-249 242q-117 -137 -224.5 -199.5t-242.5 -62.5q-199 0 -323 117.5t-124 299.5z M313 395q0 -117 81 -186.5t194 -69.5q96 0 174 50.5t172 162.5l-363 353l-26 -15q-117 -61 -174.5 -128.5t-57.5 -166.5zM449 1145q0 -47 24.5 -92t51 -74t87.5 -86l11 6q106 55 158.5 104.5t52.5 124.5q0 86 -51.5 141.5t-137.5 55.5q-82 0 -139 -49t-57 -131z" />
<glyph unicode="'" horiz-adv-x="432" d="M135 948v506h160v-506h-160z" />
<glyph unicode="(" horiz-adv-x="563" d="M96 655q0 506 262 983h144q-248 -481 -248 -983t248 -983h-144q-262 477 -262 983z" />
<glyph unicode=")" horiz-adv-x="561" d="M59 -328q248 481 248 983t-248 983h144q262 -477 262 -983t-262 -983h-144z" />
<glyph unicode="*" horiz-adv-x="901" d="M80 1147l39 131l262 -86v262h137v-262l260 84l43 -129l-260 -86l162 -219l-111 -80l-161 219l-160 -219l-111 80l158 219z" />
<glyph unicode="+" horiz-adv-x="1024" d="M78 514v158h354v352h160v-352h352v-158h-352v-352h-160v352h-354z" />
<glyph unicode="," horiz-adv-x="524" d="M57 -293l138 293q-84 41 -84 137q0 61 45 107.5t106.5 46.5t106.5 -46t45 -108q0 -45 -29 -92l-211 -338h-117z" />
<glyph unicode="-" horiz-adv-x="790" d="M133 485v177h522v-177h-522z" />
<glyph unicode="." horiz-adv-x="516" d="M106 137q0 61 45.5 107.5t106.5 46.5t106.5 -46t45.5 -108q0 -63 -44 -108t-107.5 -45t-108 45t-44.5 108z" />
<glyph unicode="/" horiz-adv-x="1042" d="M43 -225l791 1679h165l-790 -1679h-166z" />
<glyph unicode="0" horiz-adv-x="1275" d="M123 526v406q0 242 144.5 394.5t369.5 152.5t370.5 -154t145.5 -393v-406q0 -242 -145.5 -394t-370.5 -152q-227 0 -370.5 152.5t-143.5 393.5zM299 526q0 -174 94 -274t244 -100q152 0 246 100t94 274v406q0 174 -94.5 274.5t-245.5 100.5q-150 0 -244 -100.5 t-94 -274.5v-406z" />
<glyph unicode="1" horiz-adv-x="665" d="M16 1280l144 174h313v-1454h-176v1280h-281z" />
<glyph unicode="2" horiz-adv-x="1142" d="M98 1020q0 205 136.5 332t343.5 127q193 0 320.5 -111t127.5 -315q0 -156 -76 -265.5t-260 -242.5q-35 -25 -98.5 -69t-98 -70.5t-76.5 -64.5t-65.5 -80t-34.5 -91h725v-170h-942v70q0 76 23.5 144.5t52.5 115.5t90.5 105.5t96 86t116.5 86t109 76.5q145 106 201.5 179 t56.5 192q0 115 -74 183.5t-192 68.5q-125 0 -213 -76t-88 -211h-181z" />
<glyph unicode="3" horiz-adv-x="1187" d="M90 442h178q8 -129 104.5 -209.5t235.5 -80.5q127 0 211 69.5t84 192.5q0 131 -85 196.5t-232 65.5h-109v162h117q117 0 191.5 65.5t76.5 169.5q0 102 -74.5 168t-187.5 66q-129 0 -217 -76t-88 -211h-180q0 209 139 334t346 125q190 0 316 -109.5t126 -290.5 q-2 -104 -56 -188t-140 -129q111 -45 174 -138.5t63 -215.5q0 -190 -133 -309t-342 -119q-217 0 -367.5 132t-150.5 330z" />
<glyph unicode="4" horiz-adv-x="1263" d="M35 395v142l796 917h154v-893h201v-166h-201v-395h-176v395h-774zM264 561h545v627z" />
<glyph unicode="5" horiz-adv-x="1136" d="M74 393h180q25 -106 108.5 -173.5t198.5 -67.5q133 0 223 90t90 221q0 133 -86 223t-219 90q-182 0 -274 -147l-168 49l149 776h680v-172h-538l-80 -416q106 76 254 76q203 0 333 -142.5t130 -359.5q0 -193 -141.5 -326.5t-352.5 -133.5q-197 0 -340 122.5t-147 290.5z " />
<glyph unicode="6" horiz-adv-x="1144" d="M74 459q0 106 42 191t122 179l530 625h223l-444 -526q37 4 57 4q182 0 318.5 -139.5t136.5 -329.5q0 -203 -140.5 -343t-351.5 -140t-352 139t-141 340zM254 463q0 -131 90 -222t223 -91q131 0 221.5 92t90.5 221t-90.5 221t-221.5 92q-133 0 -223 -91t-90 -222z" />
<glyph unicode="7" horiz-adv-x="1042" d="M59 1282v172h955v-147l-692 -1307h-197l678 1282h-744z" />
<glyph unicode="8" horiz-adv-x="1169" d="M96 436q0 266 230 379q-150 106 -150 289q0 164 116 269.5t294 105.5q180 0 293.5 -105.5t113.5 -269.5q0 -184 -147 -289q227 -113 227 -379q0 -199 -136 -327.5t-351 -128.5q-213 0 -351.5 129t-138.5 327zM274 436q0 -123 86.5 -206t225.5 -83q143 0 226 82t83 207 q0 127 -83 209t-226 82q-139 0 -225.5 -83t-86.5 -208zM350 1100q0 -88 66 -151.5t170 -63.5q106 0 169.5 62.5t63.5 152.5q0 94 -62.5 153.5t-170.5 59.5q-104 0 -170 -60.5t-66 -152.5z" />
<glyph unicode="9" horiz-adv-x="1144" d="M88 993q0 205 140.5 345.5t351.5 140.5t352 -139.5t141 -340.5q0 -106 -42 -191t-122 -179l-532 -629h-225l448 528q-23 -2 -57 -2q-182 0 -318.5 139.5t-136.5 327.5zM268 995q0 -131 89 -222t222.5 -91t223.5 91t90 222t-90 222.5t-223.5 91.5t-222.5 -91.5t-89 -222.5 z" />
<glyph unicode=":" horiz-adv-x="561" d="M129 137q0 61 45 107.5t106.5 46.5t106.5 -46t45 -108q0 -63 -44 -108t-107.5 -45t-107.5 45t-44 108zM129 895q0 61 45 107.5t106.5 46.5t106.5 -46.5t45 -107.5q0 -63 -44 -108.5t-107.5 -45.5t-107.5 45t-44 109z" />
<glyph unicode=";" horiz-adv-x="583" d="M90 -293l137 293q-84 41 -84 137q0 61 45 107.5t106.5 46.5t106.5 -46t45 -108q1 -45 -28 -92l-211 -338h-117zM143 895q0 61 45 107.5t106.5 46.5t106.5 -46.5t45 -107.5q0 -63 -44 -108.5t-107.5 -45.5t-107.5 45t-44 109z" />
<glyph unicode="&#x3c;" horiz-adv-x="874" d="M66 594l518 518h223l-518 -518l518 -518h-223z" />
<glyph unicode="=" horiz-adv-x="1146" d="M139 293v156h869v-156h-869zM139 737v158h869v-158h-869z" />
<glyph unicode="&#x3e;" horiz-adv-x="874" d="M68 76l518 518l-518 518h223l518 -518l-518 -518h-223z" />
<glyph unicode="?" horiz-adv-x="1036" d="M68 1034q0 186 129 315.5t323 129.5q186 0 304 -123t118 -295q0 -123 -59.5 -209t-155.5 -160q-8 -6 -31.5 -24.5t-34 -26.5t-30 -24.5t-27.5 -27.5t-19.5 -26.5t-15.5 -31t-4 -31.5v-17h-176v41q0 131 186 267q100 74 145.5 129t45.5 137q0 106 -68.5 178t-177.5 72 q-123 0 -199.5 -75t-76.5 -198h-176zM324 137q0 61 45 107.5t106.5 46.5t106.5 -46t45 -108q0 -63 -44 -108t-107.5 -45t-107.5 45t-44 108z" />
<glyph unicode="@" horiz-adv-x="1662" d="M96 690q0 342 236.5 565.5t560.5 223.5q301 0 498.5 -178.5t197.5 -469.5q0 -248 -105.5 -376.5t-258.5 -128.5q-164 0 -215 123q-39 -53 -113 -87t-149 -34q-135 0 -225.5 96t-90.5 258q0 190 121 318t293 128q88 0 151.5 -43t83.5 -102l25 127h156l-103 -487 q-33 -162 80 -162q96 0 151.5 94t55.5 281q0 229 -156.5 369.5t-398.5 140.5q-266 0 -457.5 -182.5t-191.5 -473.5q0 -256 154.5 -416.5t414.5 -160.5q215 0 377 80v-146q-174 -67 -377 -67q-324 0 -519.5 202.5t-195.5 507.5zM590 756q-20 -123 31 -206t149 -83 q96 0 169 66.5t91 166.5q20 123 -30 206t-152 83q-96 0 -168 -66.5t-90 -166.5z" />
<glyph unicode="A" horiz-adv-x="1470" d="M12 0l643 1454h158l645 -1454h-198l-189 424h-678l-184 -424h-197zM469 596h526l-264 600z" />
<glyph unicode="B" horiz-adv-x="1288" d="M193 0v1454h477q197 0 315.5 -112.5t118.5 -272.5q0 -201 -156 -297q252 -92 252 -348q0 -184 -134 -304t-353 -120h-520zM383 172h338q143 0 218 66.5t75 179.5q0 111 -75 179.5t-216 68.5h-340v-494zM383 829h287q115 0 181.5 62.5t66.5 163.5q0 96 -68 161.5 t-180 65.5h-287v-453z" />
<glyph unicode="C" horiz-adv-x="1613" d="M94 727.5q0 319.5 216 535.5t538 216q262 0 453.5 -147.5t242.5 -356.5h-201q-51 141 -185 232t-310 91q-242 0 -402.5 -164.5t-160.5 -406.5t160.5 -406.5t402.5 -164.5q176 0 310 91t185 232h201q-51 -209 -242.5 -356.5t-453.5 -147.5q-322 0 -538 216.5t-216 536z " />
<glyph unicode="D" horiz-adv-x="1476" d="M193 0v1454h417q334 0 554 -207t220 -520t-220 -520t-554 -207h-417zM383 178h227q260 0 421 154.5t161 394.5t-161 394.5t-421 154.5h-227v-1098z" />
<glyph unicode="E" horiz-adv-x="1140" d="M193 0v1454h847v-180h-657v-440h535v-181h-535v-473h657v-180h-847z" />
<glyph unicode="F" horiz-adv-x="1087" d="M193 0v1454h845v-180h-655v-440h518v-181h-518v-653h-190z" />
<glyph unicode="G" horiz-adv-x="1671" d="M94 727.5q0 319.5 216 535.5t538 216q246 0 434 -132.5t254 -322.5h-211q-61 123 -188 198.5t-289 75.5q-242 0 -402.5 -164.5t-160.5 -406.5t160.5 -406.5t402.5 -164.5q223 0 367.5 139t164.5 358h-540v178h737q3 -46 3 -90q0 -323 -187 -531q-213 -235 -545 -235 q-322 0 -538 216.5t-216 536z" />
<glyph unicode="H" horiz-adv-x="1562" d="M193 0v1454h190v-620h797v620h190v-1454h-190v655h-797v-655h-190z" />
<glyph unicode="I" horiz-adv-x="575" d="M193 0v1454h190v-1454h-190z" />
<glyph unicode="J" horiz-adv-x="1083" d="M45 389h188q0 -111 71 -174t171 -63q104 0 172 65.5t68 204.5v1032h188v-1053q0 -215 -121 -320.5t-305 -105.5q-186 0 -309 110t-123 304z" />
<glyph unicode="K" horiz-adv-x="1374" d="M193 0v1454h188v-631l635 631h248l-693 -692l850 -762h-268l-772 692v-692h-188z" />
<glyph unicode="L" horiz-adv-x="1122" d="M193 0v1454h190v-1274h702v-180h-892z" />
<glyph unicode="M" horiz-adv-x="1814" d="M193 0v1454h174l538 -725l543 725h172v-1454h-188v1130l-525 -704l-524 704v-1130h-190z" />
<glyph unicode="N" horiz-adv-x="1626" d="M193 0v1454h165l885 -1132v1132h189v-1454h-164l-885 1133v-1133h-190z" />
<glyph unicode="O" horiz-adv-x="1689" d="M92 727q0 315 219 533.5t533 218.5q315 0 533 -218.5t218 -533.5t-218 -533.5t-533 -218.5q-313 0 -532.5 218.5t-219.5 533.5zM285 727q0 -240 160.5 -405.5t398.5 -165.5q240 0 400.5 165.5t160.5 405.5t-161 405.5t-400 165.5q-238 0 -398.5 -165.5t-160.5 -405.5z " />
<glyph unicode="P" horiz-adv-x="1200" d="M193 0v1454h444q223 0 361.5 -131t138.5 -331.5t-138.5 -331t-361.5 -130.5h-254v-530h-190zM383 707h254q145 0 228 79.5t83 204.5t-83 205t-228 80h-254v-569z" />
<glyph unicode="Q" horiz-adv-x="1718" d="M92 727q0 315 219 533.5t533 218.5q315 0 533 -218.5t218 -533.5q0 -268 -165 -477l270 -250h-260l-140 127q-196 -152 -456 -152q-313 0 -532.5 218.5t-219.5 533.5zM285 727q0 -240 160.5 -405.5t398.5 -165.5q184 0 321 98l-231 215l117 131l239 -223q115 154 115 350 q0 240 -161 405.5t-400 165.5q-238 0 -398.5 -165.5t-160.5 -405.5z" />
<glyph unicode="R" horiz-adv-x="1300" d="M193 0v1454h495q201 0 317.5 -109.5t116.5 -291.5q0 -160 -95 -262.5t-265 -126.5l561 -664h-240l-559 662h-141v-662h-190zM383 831h283q127 0 196.5 56.5t69.5 165t-69.5 167t-196.5 58.5h-283v-447z" />
<glyph unicode="S" horiz-adv-x="1150" d="M88 389h191q12 -113 105 -174t208 -61q119 0 196.5 59t77.5 158q0 166 -207 243l-200 74q-172 59 -253 157.5t-83 252.5q0 174 124 277.5t318 103.5q205 0 325 -118t134 -276h-188q-27 109 -102 162t-173 53q-106 0 -177 -53t-71 -143t49.5 -143.5t159.5 -92.5l187 -67 q172 -61 260 -162.5t88 -261.5q0 -182 -129 -292t-334 -110q-221 0 -361.5 121t-144.5 293z" />
<glyph unicode="T" horiz-adv-x="1161" d="M35 1274v180h1091v-180h-452v-1274h-187v1274h-452z" />
<glyph unicode="U" horiz-adv-x="1486" d="M174 565v889h191v-893q0 -195 102 -300t276.5 -105t276.5 105.5t102 299.5v893h191v-889q0 -268 -158 -429t-412 -161t-411.5 161t-157.5 429z" />
<glyph unicode="V" horiz-adv-x="1435" d="M16 1454h211l490 -1157l491 1157h207l-618 -1454h-160z" />
<glyph unicode="W" horiz-adv-x="1939" d="M47 1454h199l303 -1135l420 1160l420 -1160l305 1135h198l-397 -1454h-170l-356 987l-355 -987h-170z" />
<glyph unicode="X" horiz-adv-x="1372" d="M8 0l561 735l-538 719h227l428 -567l428 567h227l-536 -719l559 -735h-231l-447 582l-444 -582h-234z" />
<glyph unicode="Y" horiz-adv-x="1380" d="M31 1454h227l432 -647l434 647h228l-568 -840v-614h-188v616z" />
<glyph unicode="Z" horiz-adv-x="1202" d="M70 0v127l788 1147h-766v180h1018v-127l-788 -1147h808v-180h-1060z" />
<glyph unicode="[" horiz-adv-x="624" d="M188 -328v1966h383v-147h-223v-1671h223v-148h-383z" />
<glyph unicode="\" horiz-adv-x="1042" d="M43 1454h166l790 -1679h-165z" />
<glyph unicode="]" horiz-adv-x="624" d="M53 -180h223v1671h-223v147h383v-1966h-383v148z" />
<glyph unicode="^" horiz-adv-x="833" d="M106 1024l259 430h106l258 -430h-149l-164 270l-162 -270h-148z" />
<glyph unicode="_" horiz-adv-x="1089" d="M111 0h868v-150h-868v150z" />
<glyph unicode="`" horiz-adv-x="0" d="M-209 1536h225l193 -389h-143z" />
<glyph unicode="a" d="M86 512q0 221 144.5 376.5t357.5 155.5q113 0 210 -50t150 -128v158h176v-1024h-176v158q-53 -78 -150 -128t-210 -50q-213 0 -357.5 155.5t-144.5 376.5zM264 512q0 -158 98 -264.5t252 -106.5q152 0 250.5 106.5t98.5 264.5t-98.5 264.5t-250.5 106.5 q-154 0 -252 -106.5t-98 -264.5z" />
<glyph unicode="b" d="M166 0v1536h176v-670q53 78 150.5 128t209.5 50q213 0 357.5 -155.5t144.5 -376.5t-144.5 -376.5t-357.5 -155.5q-113 0 -210 50t-150 128v-158h-176zM328 512q0 -158 98 -264.5t249.5 -106.5t250 106.5t98.5 264.5t-98.5 264.5t-250 106.5t-249.5 -106.5t-98 -264.5z " />
<glyph unicode="c" horiz-adv-x="1204" d="M86 512q0 223 151.5 377.5t383.5 154.5q190 0 329.5 -105t186.5 -275h-189q-37 100 -123 159.5t-204 59.5q-158 0 -257.5 -106.5t-99.5 -264.5t99.5 -264.5t257.5 -106.5q119 0 204.5 59.5t122.5 159.5h189q-45 -170 -184 -275t-332 -105q-231 0 -383 154.5t-152 377.5z " />
<glyph unicode="d" d="M86 512q0 221 144.5 376.5t357.5 155.5q113 0 210 -50t150 -128v670h176v-1536h-176v158q-53 -78 -150 -128t-210 -50q-213 0 -357.5 155.5t-144.5 376.5zM264 512q0 -158 98 -264.5t252 -106.5q152 0 250.5 106.5t98.5 264.5t-98.5 264.5t-250.5 106.5 q-154 0 -252 -106.5t-98 -264.5z" />
<glyph unicode="e" horiz-adv-x="1185" d="M86 512q0 231 142.5 381.5t377.5 150.5q238 0 373 -168q121 -150 121 -360q0 -25 -2 -51h-834q4 -139 102.5 -232.5t237.5 -93.5q209 0 297 172h180q-39 -143 -166 -237t-313 -94q-223 0 -369.5 151.5t-146.5 380.5zM272 604h639q-25 139 -108.5 212t-202.5 73t-212 -72 t-116 -213z" />
<glyph unicode="f" horiz-adv-x="751" d="M35 862v162h217v207q0 154 86 235.5t227 81.5q84 0 160 -26v-156q-47 20 -127 20q-88 0 -129 -38.5t-41 -135.5v-188h297v-162h-297v-862h-176v862h-217z" />
<glyph unicode="g" horiz-adv-x="1286" d="M86 524q0 219 144.5 369.5t357.5 150.5q113 0 207 -49t149 -129v158h176v-961q0 -246 -142.5 -379t-361.5 -133q-203 0 -337 99.5t-158 255.5h172q68 -199 328 -199q145 0 234 93.5t89 260.5v121q-55 -82 -149.5 -131t-206.5 -49q-215 0 -358.5 150.5t-143.5 371.5z M266 524.5q0 -155.5 96.5 -257t250 -101.5t249.5 101.5t96 257t-97 257t-248.5 101.5t-249 -101.5t-97.5 -257z" />
<glyph unicode="h" horiz-adv-x="1206" d="M166 0v1536h176v-670q104 178 326 178q174 0 280.5 -112.5t106.5 -300.5v-631h-174v604q0 129 -65.5 204t-176.5 75q-127 0 -212 -100.5t-85 -274.5v-508h-176z" />
<glyph unicode="i" horiz-adv-x="509" d="M129 1423q0 51 37 88t90 37t88 -36.5t35 -88.5q0 -53 -35 -89t-88 -36t-90 36t-37 89zM166 0v1024h176v-1024h-176z" />
<glyph unicode="j" horiz-adv-x="526" d="M-35 -285q33 -4 60 -4q158 0 157 174v1139h176v-1159q0 -154 -86 -234t-223 -80q-47 0 -84 7v157zM145 1423q0 51 37 88t90.5 37t88 -36.5t34.5 -88.5q0 -53 -34.5 -89t-88 -36t-90.5 36t-37 89z" />
<glyph unicode="k" horiz-adv-x="1103" d="M166 0v1536h176v-911l446 399h234l-504 -453l617 -571h-238l-555 512v-512h-176z" />
<glyph unicode="l" horiz-adv-x="509" d="M166 0v1536h176v-1536h-176z" />
<glyph unicode="m" horiz-adv-x="1812" d="M166 0v1024h176v-158q98 178 309 178q233 0 316 -219q41 100 131 159.5t205 59.5q166 0 262 -112.5t96 -302.5v-629h-176v602q0 127 -52.5 204t-150.5 77q-123 0 -199.5 -96.5t-81.5 -262.5v-524h-176v602q0 129 -52 205t-148 76q-127 0 -205 -101.5t-78 -273.5v-508 h-176z" />
<glyph unicode="n" horiz-adv-x="1206" d="M166 0v1024h176v-158q104 178 326 178q174 0 280.5 -112.5t106.5 -300.5v-631h-174v604q0 129 -65.5 204t-176.5 75q-127 0 -212 -100.5t-85 -274.5v-508h-176z" />
<glyph unicode="o" horiz-adv-x="1241" d="M84 512q0 223 152.5 377.5t384.5 154.5q229 0 381.5 -154.5t152.5 -377.5t-152.5 -377.5t-381.5 -154.5q-231 0 -384 154.5t-153 377.5zM264 512q0 -156 99.5 -262.5t257 -106.5t256 106.5t98.5 262.5t-98.5 262.5t-256 106.5t-257 -106.5t-99.5 -262.5z" />
<glyph unicode="p" horiz-adv-x="1292" d="M166 -428v1452h176v-158q53 78 150.5 128t209.5 50q213 0 357.5 -155.5t144.5 -376.5t-144.5 -376.5t-357.5 -155.5q-113 0 -210 50t-150 128v-586h-176zM328 512q0 -158 98 -264.5t249.5 -106.5t250 106.5t98.5 264.5t-98.5 264.5t-250 106.5t-249.5 -106.5t-98 -264.5z " />
<glyph unicode="q" d="M86 512q0 221 144.5 376.5t357.5 155.5q113 0 210 -50t150 -128v158h176v-1452h-176v586q-53 -78 -150.5 -128t-209.5 -50q-213 0 -357.5 155.5t-144.5 376.5zM264 512q0 -158 98 -264.5t252 -106.5q152 0 250.5 106.5t98.5 264.5t-98.5 264.5t-250.5 106.5 q-154 0 -252 -106.5t-98 -264.5z" />
<glyph unicode="r" horiz-adv-x="749" d="M166 0v1024h176v-199q29 94 112 151.5t175 57.5q45 0 80 -8v-182q-37 16 -97 16q-106 0 -188 -92t-82 -260v-508h-176z" />
<glyph unicode="s" horiz-adv-x="956" d="M80 297h180q16 -86 83 -127t155 -41t142 35t54 100q0 61 -40 100t-130 64l-147 39q-264 70 -264 301q0 125 99 200.5t255 75.5q158 0 259 -82.5t114 -209.5h-176q-20 68 -72.5 106.5t-124.5 38.5q-76 0 -126 -35t-50 -92q0 -55 37 -90t118 -57l164 -43q262 -66 262 -304 q0 -147 -104 -221.5t-272 -74.5q-172 0 -288 83.5t-128 233.5z" />
<glyph unicode="t" horiz-adv-x="780" d="M33 862v162h217v285h176v-285h295v-162h-295v-536q0 -96 41 -135t129 -39q78 0 125 20v-158q-74 -24 -158 -24q-141 0 -227 80t-86 233v559h-217z" />
<glyph unicode="u" horiz-adv-x="1185" d="M152 395v629h176v-602q0 -129 62.5 -205t168.5 -76q123 0 204 101.5t81 273.5v508h176v-1024h-176v158q-101 -178 -316 -178q-168 0 -272 113.5t-104 301.5z" />
<glyph unicode="v" horiz-adv-x="1118" d="M12 1024h197l350 -776l350 776h197l-473 -1024h-148z" />
<glyph unicode="w" horiz-adv-x="1562" d="M25 1024h184l248 -748l256 748h135l256 -748l248 748h186l-348 -1024h-156l-254 735l-252 -735h-155z" />
<glyph unicode="x" horiz-adv-x="1085" d="M12 0l420 518l-385 506h213l283 -371l280 371h215l-387 -506l420 -518h-217l-311 387l-312 -387h-219z" />
<glyph unicode="y" horiz-adv-x="1120" d="M16 1024h195l352 -778l350 778h197l-672 -1452h-196l223 481z" />
<glyph unicode="z" horiz-adv-x="991" d="M82 0v139l586 723h-578v162h805v-141l-586 -721h604v-162h-831z" />
<glyph unicode="{" horiz-adv-x="647" d="M61 582v147h31q72 0 95.5 33t23.5 110v474q0 150 58.5 221t199.5 71h125v-147h-98q-76 0 -100.5 -34t-24.5 -116v-460q0 -98 -23.5 -147.5t-87.5 -78.5q61 -29 86 -79t25 -148v-459q0 -84 24.5 -116.5t100.5 -32.5h98v-148h-123q-141 0 -200.5 72t-59.5 221v471 q0 76 -23.5 111t-95.5 35h-31z" />
<glyph unicode="|" horiz-adv-x="536" d="M188 -225v1679h162v-1679h-162z" />
<glyph unicode="}" horiz-adv-x="647" d="M53 -180h99q76 0 100 32.5t24 116.5v459q0 98 25 148.5t86 78.5q-63 29 -87 78t-24 148v460q0 82 -24.5 116t-99.5 34h-99v147h125q141 0 199.5 -71.5t58.5 -220.5v-474q0 -78 23.5 -110.5t95.5 -32.5h31v-147h-31q-72 0 -95.5 -35t-23.5 -111v-471q0 -150 -59.5 -221.5 t-200.5 -71.5h-123v148z" />
<glyph unicode="~" horiz-adv-x="843" d="M141 471l113 244h94l166 -121l55 121h138l-113 -244h-94l-168 119l-53 -119h-138z" />
<glyph unicode="&#xa1;" horiz-adv-x="528" d="M113 895q0 61 45 107.5t106.5 46.5t106.5 -46.5t45 -107.5q0 -63 -44 -108.5t-107.5 -45.5t-107.5 45t-44 109zM176 156l33 417h110l33 -417v-584h-176v584z" />
<glyph unicode="&#xa2;" horiz-adv-x="1212" d="M92 512q0 205 134 356.5t341 171.5v164h111v-162q174 -16 299 -118.5t166 -259.5h-189q-31 88 -104.5 145t-171.5 70v-736q98 14 172 72.5t104 144.5h189q-43 -158 -167 -261t-298 -117v-162h-111v164q-209 20 -342 170.5t-133 357.5zM270 512q0 -141 82 -243.5 t215 -123.5v732q-135 -20 -216 -121t-81 -244z" />
<glyph unicode="&#xa3;" horiz-adv-x="1153" d="M104 0v172h127q96 102 97 244q0 63 -62 272h-162v113h127q-45 162 -45 258q0 174 121 297t314 123q190 0 312 -128t126 -313h-176q-4 115 -76 192t-186.5 77t-186.5 -72t-72 -182q0 -82 52 -252h391v-113h-354q49 -162 49 -262q0 -154 -76 -254h635v-172h-955z" />
<glyph unicode="&#xa5;" horiz-adv-x="1378" d="M61 1454h211l416 -663l416 663h213l-469 -729h354v-111h-424v-153h424v-111h-424v-350h-176v350h-426v111h426v153h-426v111h356z" />
<glyph unicode="&#xa6;" horiz-adv-x="536" d="M188 -225v741h162v-741h-162zM188 713v741h162v-741h-162z" />
<glyph unicode="&#xa7;" horiz-adv-x="937" d="M109 513.5q0 229.5 219 336.5q-211 125 -211 330q0 135 86 217t231 82q133 0 224.5 -70t107.5 -215h-164q-31 141 -168 141q-72 0 -113.5 -43t-41.5 -112q0 -45 15 -81t47 -63.5t59.5 -45t74.5 -42.5l129 -61q229 -106 230 -336q0 -236 -224 -336q207 -127 215 -350 q0 -139 -95.5 -226.5t-240.5 -87.5q-135 0 -234 70t-116 215h164q31 -141 186 -141q76 0 126.5 47t48.5 125q-8 160 -199 250l-129 61q-227 106 -227 335.5zM270 522q0 -139 162 -213l14 -8q113 43 169.5 97.5t56.5 146.5q0 137 -162 213l-14 6q-113 -41 -169.5 -95.5 t-56.5 -146.5z" />
<glyph unicode="&#xa8;" horiz-adv-x="0" d="M-350 1339.5q0 49.5 34.5 85t86.5 35.5q49 0 83.5 -35.5t34.5 -85t-34.5 -84t-83.5 -34.5q-51 0 -86 34.5t-35 84zM111 1339.5q0 49.5 35.5 85t85 35.5t84 -35.5t34.5 -85t-34.5 -84t-84 -34.5t-85 34.5t-35.5 84z" />
<glyph unicode="&#xa9;" horiz-adv-x="1687" d="M92 727q0 309 220 530.5t530 221.5q311 0 532 -220.5t221 -531.5t-221 -531.5t-532 -220.5q-309 0 -529.5 221.5t-220.5 530.5zM238 727q0 -250 178 -428t426 -178q250 0 429 178t179 428t-179 428t-429 178q-248 0 -426 -178t-178 -428zM453 727q0 166 113.5 280.5 t285.5 114.5q133 0 236.5 -75.5t132.5 -196.5h-156q-25 61 -83 97t-130 36q-111 0 -182.5 -74.5t-71.5 -181.5q0 -111 69.5 -182.5t184.5 -71.5q72 0 130 36t83 95h156q-29 -117 -132.5 -193.5t-236.5 -76.5q-172 0 -285.5 113.5t-113.5 279.5z" />
<glyph unicode="&#xaa;" horiz-adv-x="860" d="M88 1147q0 131 85 225t208 94q131 0 194 -90v78h144v-614h-144v78q-63 -91 -194 -91q-123 0 -208 94.5t-85 225.5zM233 1147q0 -82 49.5 -136.5t127 -54.5t128 54.5t50.5 136.5t-50.5 136t-128 54t-127 -54t-49.5 -136z" />
<glyph unicode="&#xab;" horiz-adv-x="976" d="M88 512l289 444h149l-237 -444l237 -444h-149zM442 512l289 444h150l-238 -444l238 -444h-150z" />
<glyph unicode="&#xad;" horiz-adv-x="790" d="M133 485v177h522v-177h-522z" />
<glyph unicode="&#xae;" horiz-adv-x="1687" d="M92 727q0 309 220 530.5t530 221.5q311 0 532 -220.5t221 -531.5t-221 -531.5t-532 -220.5q-309 0 -529.5 221.5t-220.5 530.5zM238 727q0 -250 178 -428t426 -178q250 0 429 178t179 428t-179 428t-429 178q-248 0 -426 -178t-178 -428zM600 346v764h285 q106 0 169.5 -62.5t63.5 -160.5q0 -158 -162 -203l277 -338h-174l-268 326h-46v-326h-145zM745 797h123q47 0 77 24.5t30 65.5q0 43 -28.5 65.5t-78.5 22.5h-123v-178z" />
<glyph unicode="&#xaf;" horiz-adv-x="0" d="M-330 1313v141h660v-141h-660z" />
<glyph unicode="&#xb0;" horiz-adv-x="710" d="M90 1196q0 111 78 188.5t188.5 77.5t187.5 -77.5t77 -188.5t-77 -187.5t-187.5 -76.5t-188.5 76.5t-78 187.5zM217 1196q0 -57 40 -97t99 -40q57 0 97.5 40t40.5 97t-40 98t-98 41q-59 0 -99 -41t-40 -98z" />
<glyph unicode="&#xb2;" horiz-adv-x="722" d="M66 840v51q0 35 8 68.5t17 58t32.5 53.5t36 45.5t46.5 43t46 35.5t53 37t49 34q78 57 113 100t35 102q0 57 -38 93t-99 36q-68 0 -111 -39.5t-43 -105.5h-145q0 127 86 207t215 80q117 0 197.5 -70t80.5 -196q0 -100 -45 -168t-147 -144q-12 -8 -57.5 -38.5t-65 -46 t-44 -43t-32.5 -54.5h399v-139h-587z" />
<glyph unicode="&#xb3;" horiz-adv-x="747" d="M59 1118h142q6 -72 56 -111.5t126 -39.5q68 0 110 34.5t42 96.5q0 66 -45.5 101.5t-120.5 35.5h-70v123h70q66 0 102.5 32.5t38.5 88.5q2 53 -37 85.5t-96 32.5q-68 0 -113 -39.5t-45 -105.5h-143q0 131 88 209t213 78q127 0 202.5 -70t75.5 -182q-2 -127 -106 -191 q131 -57 131 -206q0 -117 -83 -190t-216 -73t-227.5 80t-94.5 211z" />
<glyph unicode="&#xb4;" horiz-adv-x="0" d="M-209 1147l191 389h225l-275 -389h-141z" />
<glyph unicode="&#xb6;" horiz-adv-x="1277" d="M61 993.5q0 190.5 135.5 325.5t325.5 135h543v-1831h-162v1669h-219v-1669h-162v909q-190 0 -325.5 135.5t-135.5 326z" />
<glyph unicode="&#xb7;" horiz-adv-x="552" d="M125 557q0 61 45 107.5t106.5 46.5t106.5 -46.5t45 -107.5q0 -63 -44 -108.5t-107.5 -45.5t-107.5 45.5t-44 108.5z" />
<glyph unicode="&#xb8;" horiz-adv-x="0" d="M-219 -305q61 -35 156 -35q59 0 99 21.5t40 62.5q0 61 -96 61q-47 0 -91 -20l-67 43l108 178h111l-70 -115q31 14 82 15q74 0 120 -42t46 -114q0 -88 -76.5 -143.5t-189.5 -55.5q-109 0 -172 31v113z" />
<glyph unicode="&#xb9;" horiz-adv-x="468" d="M23 1583l106 141h215v-884h-143v743h-178z" />
<glyph unicode="&#xba;" horiz-adv-x="815" d="M86 1147q0 135 92 227t230 92q135 0 228 -92t93 -227t-93 -227.5t-228 -92.5q-137 0 -229.5 92.5t-92.5 227.5zM231 1147q0 -80 49.5 -133t127 -53t128 53t50.5 133t-50.5 133t-128 53t-127 -53t-49.5 -133z" />
<glyph unicode="&#xbb;" horiz-adv-x="976" d="M96 68l238 444l-238 444h150l289 -444l-289 -444h-150zM451 68l237 444l-237 444h149l289 -444l-289 -444h-149z" />
<glyph unicode="&#xbc;" horiz-adv-x="1613" d="M23 1313l106 141h215v-885h-143v744h-178zM90 0l1024 1454h166l-1024 -1454h-166zM852 221v115l467 551h129v-535h119v-131h-119v-219h-143v219h-453zM1028 352h277v322z" />
<glyph unicode="&#xbd;" horiz-adv-x="1591" d="M23 1313l106 141h215v-885h-143v744h-178zM90 0l1024 1454h166l-1024 -1454h-166zM934 2v51q0 35 8 69t17.5 58.5t33 53t35.5 45t46 43t46.5 36t53 37t49.5 33.5q78 57 112.5 100t34.5 103q0 57 -38 93t-99 36q-68 0 -111 -40t-43 -106h-145q0 127 86 207t215 80 q117 0 197.5 -69.5t80.5 -196.5q0 -100 -45 -168t-147 -143q-12 -8 -57 -39t-64.5 -46.5t-44.5 -43t-33 -54.5h400v-139h-588z" />
<glyph unicode="&#xbe;" horiz-adv-x="1859" d="M59 848h142q6 -72 56 -112t126 -40q68 0 110 35t42 96q0 66 -45.5 102t-120.5 36h-70v122h70q66 0 102.5 33t38.5 88q2 53 -37 86t-96 33q-68 0 -113 -40t-45 -105h-143q0 131 88 208.5t213 77.5q127 0 202.5 -69.5t75.5 -181.5q-2 -127 -106 -191q131 -57 131 -207 q0 -117 -83 -189.5t-216 -72.5t-227.5 80t-94.5 211zM338 0l1024 1454h166l-1024 -1454h-166zM1100 221v115l467 551h129v-535h119v-131h-119v-219h-144v219h-452zM1276 352h276v322z" />
<glyph unicode="&#xbf;" horiz-adv-x="1011" d="M78 -33q0 123 59.5 209t155.5 160q8 6 31.5 24.5t34 26.5t30 24.5t27.5 28t19 26.5t15.5 30.5t4.5 31.5v17h176v-41q0 -131 -187 -266q-100 -72 -145 -128.5t-45 -138.5q0 -106 68.5 -178t177.5 -72q123 0 199.5 75t76.5 198h176q0 -186 -129 -315.5t-323 -129.5 q-186 0 -304 123t-118 295zM393 891q0 63 44 108t107.5 45t107.5 -45t44 -108q0 -61 -45 -107.5t-106.5 -46.5t-106.5 46t-45 108z" />
<glyph unicode="&#xc0;" horiz-adv-x="1470" d="M12 0l643 1454h158l645 -1454h-198l-189 424h-678l-184 -424h-197zM422 1898h221l160 -321h-148zM469 596h526l-264 600z" />
<glyph unicode="&#xc1;" horiz-adv-x="1470" d="M12 0l643 1454h158l645 -1454h-198l-189 424h-678l-184 -424h-197zM469 596h526l-264 600zM678 1577l160 321h221l-234 -321h-147z" />
<glyph unicode="&#xc2;" horiz-adv-x="1470" d="M12 0l643 1454h158l645 -1454h-198l-189 424h-678l-184 -424h-197zM393 1573v158l340 178l340 -178v-158l-340 178zM469 596h526l-264 600z" />
<glyph unicode="&#xc3;" horiz-adv-x="1470" d="M12 0l643 1454h158l645 -1454h-198l-189 424h-678l-184 -424h-197zM379 1610l6 37q16 88 75.5 141t141.5 53q57 0 147.5 -45t116.5 -45q66 0 88 90h136l-9 -39q-16 -88 -74.5 -140t-142.5 -52q-59 0 -147 45t-115 45q-66 0 -90 -90h-133zM469 596h526l-264 600z" />
<glyph unicode="&#xc4;" horiz-adv-x="1470" d="M12 0l643 1454h158l645 -1454h-198l-189 424h-678l-184 -424h-197zM383 1726.5q0 49.5 35 85t86 35.5q49 0 84 -35.5t35 -85t-35 -84t-84 -34.5q-51 0 -86 34.5t-35 84zM469 596h526l-264 600zM844 1726.5q0 49.5 35.5 85t85 35.5t84 -35.5t34.5 -85t-34.5 -84t-84 -34.5 t-85 34.5t-35.5 84z" />
<glyph unicode="&#xc5;" horiz-adv-x="1470" d="M12 0l643 1454h158l645 -1454h-198l-189 424h-678l-184 -424h-197zM469 596h526l-264 600zM485 1788q0 102 73 174t175.5 72t176 -73t73.5 -173t-73.5 -173t-176 -73t-175.5 72t-73 174zM592 1788q0 -59 41 -100t100.5 -41t102.5 41t43 100t-43 101t-102.5 42t-100.5 -42 t-41 -101z" />
<glyph unicode="&#xc6;" horiz-adv-x="1871" d="M-47 0l870 1454h949v-180h-658v-440h535v-181h-535v-473h658v-180h-848v424h-508l-252 -424h-211zM518 596h406v678h-2z" />
<glyph unicode="&#xc7;" horiz-adv-x="1613" d="M94 727.5q0 319.5 216 535.5t538 216q262 0 453.5 -147.5t242.5 -356.5h-201q-51 141 -185 232t-310 91q-242 0 -402.5 -164.5t-160.5 -406.5t160.5 -406.5t402.5 -164.5q176 0 310 91t185 232h201q-51 -209 -242.5 -356.5t-453.5 -147.5q-322 0 -538 216.5t-216 536z M627 -305q61 -35 155 -35q59 0 99.5 20.5t40.5 63.5q0 61 -95 61q-49 0 -92 -20l-65 43l106 178h113l-70 -115q31 14 82 15q74 0 119 -42t45 -114q0 -88 -76 -143.5t-188 -55.5q-108 0 -174 31v113z" />
<glyph unicode="&#xc8;" horiz-adv-x="1140" d="M193 0v1454h847v-180h-657v-440h535v-181h-535v-473h657v-180h-847zM303 1898h221l160 -321h-147z" />
<glyph unicode="&#xc9;" horiz-adv-x="1140" d="M193 0v1454h847v-180h-657v-440h535v-181h-535v-473h657v-180h-847zM559 1577l160 321h221l-233 -321h-148z" />
<glyph unicode="&#xca;" horiz-adv-x="1140" d="M193 0v1454h847v-180h-657v-440h535v-181h-535v-473h657v-180h-847zM276 1573v158l340 178l340 -178v-158l-340 178z" />
<glyph unicode="&#xcb;" horiz-adv-x="1140" d="M193 0v1454h847v-180h-657v-440h535v-181h-535v-473h657v-180h-847zM266 1726.5q0 49.5 35 85t86 35.5q49 0 84 -35.5t35 -85t-35 -84t-84 -34.5q-51 0 -86 34.5t-35 84zM727 1726.5q0 49.5 36 85t85 35.5t84 -35.5t35 -85t-35 -84t-84 -34.5t-85 34.5t-36 84z" />
<glyph unicode="&#xcc;" horiz-adv-x="575" d="M-25 1898h222l159 -321h-147zM193 0v1454h190v-1454h-190z" />
<glyph unicode="&#xcd;" horiz-adv-x="575" d="M193 0v1454h190v-1454h-190zM231 1577l160 321h221l-233 -321h-148z" />
<glyph unicode="&#xce;" horiz-adv-x="575" d="M-51 1573v158l340 178l340 -178v-158l-340 178zM193 0v1454h190v-1454h-190z" />
<glyph unicode="&#xcf;" horiz-adv-x="575" d="M-61 1726.5q0 49.5 34.5 85t85.5 35.5q49 0 84 -35.5t35 -85t-35 -84t-84 -34.5q-51 0 -85.5 34.5t-34.5 84zM193 0v1454h190v-1454h-190zM399 1726.5q0 49.5 36 85t85 35.5t84 -35.5t35 -85t-35 -84t-84 -34.5t-85 34.5t-36 84z" />
<glyph unicode="&#xd0;" horiz-adv-x="1492" d="M57 653v168h668v-168h-668zM207 0v1454h418q334 0 554 -207t220 -520t-220.5 -520t-553.5 -207h-418zM397 178h228q260 0 420.5 154.5t160.5 394.5t-160.5 394.5t-420.5 154.5h-228v-1098z" />
<glyph unicode="&#xd1;" horiz-adv-x="1626" d="M193 0v1454h165l885 -1132v1132h189v-1454h-164l-885 1133v-1133h-190zM451 1610l6 37q16 88 75.5 141t141.5 53q59 0 147 -45t117 -45q66 0 88 90h135l-8 -39q-16 -88 -74.5 -140t-142.5 -52q-59 0 -147.5 45t-114.5 45q-66 0 -90 -90h-133z" />
<glyph unicode="&#xd2;" horiz-adv-x="1689" d="M92 727q0 315 219 533.5t533 218.5q315 0 533 -218.5t218 -533.5t-218 -533.5t-533 -218.5q-313 0 -532.5 218.5t-219.5 533.5zM285 727q0 -240 160.5 -405.5t398.5 -165.5q240 0 400.5 165.5t160.5 405.5t-161 405.5t-400 165.5q-238 0 -398.5 -165.5t-160.5 -405.5z M532 1898h222l159 -321h-147z" />
<glyph unicode="&#xd3;" horiz-adv-x="1689" d="M92 727q0 315 219 533.5t533 218.5q315 0 533 -218.5t218 -533.5t-218 -533.5t-533 -218.5q-313 0 -532.5 218.5t-219.5 533.5zM285 727q0 -240 160.5 -405.5t398.5 -165.5q240 0 400.5 165.5t160.5 405.5t-161 405.5t-400 165.5q-238 0 -398.5 -165.5t-160.5 -405.5z M788 1577l160 321h221l-233 -321h-148z" />
<glyph unicode="&#xd4;" horiz-adv-x="1689" d="M92 727q0 315 219 533.5t533 218.5q315 0 533 -218.5t218 -533.5t-218 -533.5t-533 -218.5q-313 0 -532.5 218.5t-219.5 533.5zM285 727q0 -240 160.5 -405.5t398.5 -165.5q240 0 400.5 165.5t160.5 405.5t-161 405.5t-400 165.5q-238 0 -398.5 -165.5t-160.5 -405.5z M504 1573v158l340 178l340 -178v-158l-340 178z" />
<glyph unicode="&#xd5;" horiz-adv-x="1689" d="M92 727q0 315 219 533.5t533 218.5q315 0 533 -218.5t218 -533.5t-218 -533.5t-533 -218.5q-313 0 -532.5 218.5t-219.5 533.5zM285 727q0 -240 160.5 -405.5t398.5 -165.5q240 0 400.5 165.5t160.5 405.5t-161 405.5t-400 165.5q-238 0 -398.5 -165.5t-160.5 -405.5z M489 1610l7 37q16 88 75.5 141t141.5 53q57 0 147 -45t117 -45q66 0 88 90h135l-8 -39q-16 -88 -74.5 -140t-142.5 -52q-59 0 -147.5 45t-114.5 45q-66 0 -90 -90h-134z" />
<glyph unicode="&#xd6;" horiz-adv-x="1689" d="M92 727q0 315 219 533.5t533 218.5q315 0 533 -218.5t218 -533.5t-218 -533.5t-533 -218.5q-313 0 -532.5 218.5t-219.5 533.5zM285 727q0 -240 160.5 -405.5t398.5 -165.5q240 0 400.5 165.5t160.5 405.5t-161 405.5t-400 165.5q-238 0 -398.5 -165.5t-160.5 -405.5z M494 1726.5q0 49.5 34.5 85t85.5 35.5q49 0 84 -35.5t35 -85t-35 -84t-84 -34.5q-51 0 -85.5 34.5t-34.5 84zM954 1726.5q0 49.5 36 85t85 35.5t84 -35.5t35 -85t-35 -84t-84 -34.5t-85 34.5t-36 84z" />
<glyph unicode="&#xd7;" horiz-adv-x="1030" d="M109 305l292 289l-292 287l114 114l293 -286l291 286l115 -114l-293 -287l293 -289l-115 -112l-291 286l-293 -286z" />
<glyph unicode="&#xd8;" horiz-adv-x="1691" d="M94 727q0 315 219 533.5t533 218.5q315 0 533 -218.5t218 -533.5t-218 -533.5t-533 -218.5q-313 0 -532.5 218.5t-219.5 533.5zM152 66l1275 1429l113 -104l-1274 -1432zM287 727q0 -240 160.5 -405.5t398.5 -165.5q240 0 400.5 165.5t160.5 405.5t-161 405.5t-400 165.5 q-238 0 -398.5 -165.5t-160.5 -405.5z" />
<glyph unicode="&#xd9;" horiz-adv-x="1486" d="M174 565v889h191v-893q0 -195 102 -300t276.5 -105t276.5 105.5t102 299.5v893h191v-889q0 -268 -158 -429t-412 -161t-411.5 161t-157.5 429zM430 1898h221l160 -321h-147z" />
<glyph unicode="&#xda;" horiz-adv-x="1486" d="M174 565v889h191v-893q0 -195 102 -300t276.5 -105t276.5 105.5t102 299.5v893h191v-889q0 -268 -158 -429t-412 -161t-411.5 161t-157.5 429zM686 1577l160 321h221l-233 -321h-148z" />
<glyph unicode="&#xdb;" horiz-adv-x="1486" d="M174 565v889h191v-893q0 -195 102 -300t276.5 -105t276.5 105.5t102 299.5v893h191v-889q0 -268 -158 -429t-412 -161t-411.5 161t-157.5 429zM403 1573v158l340 178l340 -178v-158l-340 178z" />
<glyph unicode="&#xdc;" horiz-adv-x="1486" d="M174 565v889h191v-893q0 -195 102 -300t276.5 -105t276.5 105.5t102 299.5v893h191v-889q0 -268 -158 -429t-412 -161t-411.5 161t-157.5 429zM393 1726.5q0 49.5 35 85t86 35.5q49 0 84 -35.5t35 -85t-35 -84t-84 -34.5q-51 0 -86 34.5t-35 84zM854 1726.5q0 49.5 36 85 t85 35.5t84 -35.5t35 -85t-35 -84t-84 -34.5t-85 34.5t-36 84z" />
<glyph unicode="&#xdd;" horiz-adv-x="1380" d="M31 1454h227l432 -647l434 647h228l-568 -840v-614h-188v616zM633 1577l160 321h221l-234 -321h-147z" />
<glyph unicode="&#xde;" horiz-adv-x="1218" d="M193 0v1454h190v-264h254q223 0 361.5 -131t138.5 -332q0 -199 -138.5 -330t-361.5 -131h-254v-266h-190zM383 442h254q145 0 228 80t83 205t-83 206t-228 81h-254v-572z" />
<glyph unicode="&#xdf;" horiz-adv-x="1173" d="M166 0v1120q0 188 122 308t298 120q172 0 296 -114.5t124 -278.5q0 -100 -47.5 -186t-133.5 -140q125 -51 195 -157.5t70 -227.5q0 -184 -130.5 -314t-341.5 -130h-104v166h96q131 0 217 80t86 203q0 121 -86 201.5t-217 80.5h-92v166h53q113 0 185.5 70.5t72.5 171.5 q0 102 -69.5 172.5t-171.5 70.5q-104 0 -175 -74.5t-71 -189.5v-1118h-176z" />
<glyph unicode="&#xe0;" d="M86 512q0 221 144.5 376.5t357.5 155.5q113 0 210 -50t150 -128v158h176v-1024h-176v158q-53 -78 -150 -128t-210 -50q-213 0 -357.5 155.5t-144.5 376.5zM264 512q0 -158 98 -264.5t252 -106.5q152 0 250.5 106.5t98.5 264.5t-98.5 264.5t-250.5 106.5 q-154 0 -252 -106.5t-98 -264.5zM303 1536h225l193 -389h-143z" />
<glyph unicode="&#xe1;" d="M86 512q0 221 144.5 376.5t357.5 155.5q113 0 210 -50t150 -128v158h176v-1024h-176v158q-53 -78 -150 -128t-210 -50q-213 0 -357.5 155.5t-144.5 376.5zM264 512q0 -158 98 -264.5t252 -106.5q152 0 250.5 106.5t98.5 264.5t-98.5 264.5t-250.5 106.5 q-154 0 -252 -106.5t-98 -264.5zM594 1147l190 389h226l-275 -389h-141z" />
<glyph unicode="&#xe2;" d="M86 512q0 221 144.5 376.5t357.5 155.5q113 0 210 -50t150 -128v158h176v-1024h-176v158q-53 -78 -150 -128t-210 -50q-213 0 -357.5 155.5t-144.5 376.5zM264 512q0 -158 98 -264.5t252 -106.5q152 0 250.5 106.5t98.5 264.5t-98.5 264.5t-250.5 106.5 q-154 0 -252 -106.5t-98 -264.5zM330 1180v161l325 207l326 -207v-161l-326 206z" />
<glyph unicode="&#xe3;" d="M86 512q0 221 144.5 376.5t357.5 155.5q113 0 210 -50t150 -128v158h176v-1024h-176v158q-53 -78 -150 -128t-210 -50q-213 0 -357.5 155.5t-144.5 376.5zM264 512q0 -158 98 -264.5t252 -106.5q152 0 250.5 106.5t98.5 264.5t-98.5 264.5t-250.5 106.5 q-154 0 -252 -106.5t-98 -264.5zM299 1214l6 37q16 88 75.5 141.5t141.5 53.5q59 0 148.5 -45t115.5 -45q66 0 88 90h136l-6 -37q-16 -88 -76 -141.5t-142 -53.5q-59 0 -148 45.5t-116 45.5q-66 0 -88 -91h-135z" />
<glyph unicode="&#xe4;" d="M86 512q0 221 144.5 376.5t357.5 155.5q113 0 210 -50t150 -128v158h176v-1024h-176v158q-53 -78 -150 -128t-210 -50q-213 0 -357.5 155.5t-144.5 376.5zM264 512q0 -158 98 -264.5t252 -106.5q152 0 250.5 106.5t98.5 264.5t-98.5 264.5t-250.5 106.5 q-154 0 -252 -106.5t-98 -264.5zM305 1339.5q0 49.5 35 85t86 35.5q49 0 84 -35.5t35 -85t-35 -84t-84 -34.5q-51 0 -86 34.5t-35 84zM766 1339.5q0 49.5 36 85t85 35.5t84 -35.5t35 -85t-35 -84t-84 -34.5t-85 34.5t-36 84z" />
<glyph unicode="&#xe5;" d="M86 512q0 221 144.5 376.5t357.5 155.5q113 0 210 -50t150 -128v158h176v-1024h-176v158q-53 -78 -150 -128t-210 -50q-213 0 -357.5 155.5t-144.5 376.5zM264 512q0 -158 98 -264.5t252 -106.5q152 0 250.5 106.5t98.5 264.5t-98.5 264.5t-250.5 106.5 q-154 0 -252 -106.5t-98 -264.5zM408 1357.5q0 102.5 72.5 174.5t175 72t176 -73t73.5 -173.5t-73.5 -173t-176 -72.5t-175 71.5t-72.5 174zM514 1357.5q0 -59.5 41 -100t100.5 -40.5t102.5 40.5t43 100t-43 101.5t-102.5 42t-100.5 -42t-41 -101.5z" />
<glyph unicode="&#xe6;" horiz-adv-x="1843" d="M84 276q0 141 107.5 212t332.5 116q168 35 201 60q31 25 31 67q0 70 -54.5 114t-156.5 44q-115 0 -184.5 -53.5t-73.5 -149.5h-178q0 150 122.5 254t311.5 104q250 0 340 -178q63 84 164.5 131t220.5 47q233 0 368.5 -167.5t118.5 -411.5h-831q4 -139 101 -232.5 t239 -93.5q207 0 295 172h182q-39 -141 -167 -236t-310 -95q-258 0 -414 198q-115 -199 -397 -198q-172 0 -270.5 89t-98.5 207zM276 283q0 -72 55.5 -112t145.5 -40q131 0 208 63.5t77 192.5v152q-27 -14 -75 -30.5t-117.5 -36t-84.5 -23.5q-119 -33 -164 -68t-45 -98z M930 604h639q-25 139 -109 212t-202.5 73t-212 -72t-115.5 -213z" />
<glyph unicode="&#xe7;" horiz-adv-x="1204" d="M86 512q0 223 151.5 377.5t383.5 154.5q190 0 329.5 -105t186.5 -275h-189q-37 100 -123 159.5t-204 59.5q-158 0 -257.5 -106.5t-99.5 -264.5t99.5 -264.5t257.5 -106.5q119 0 204.5 59.5t122.5 159.5h189q-45 -170 -184 -275t-332 -105q-231 0 -383 154.5t-152 377.5z M406 -305q61 -35 155 -35q59 0 99 21.5t40 62.5q0 61 -96 61q-47 0 -90 -20l-68 43l109 178h111l-70 -115q31 14 82 15q74 0 120 -42t46 -114q0 -88 -77 -143.5t-189 -55.5q-109 0 -172 31v113z" />
<glyph unicode="&#xe8;" horiz-adv-x="1185" d="M86 512q0 231 142.5 381.5t377.5 150.5q238 0 373 -167.5t119 -411.5h-834q4 -139 102.5 -232.5t237.5 -93.5q209 0 297 172h180q-39 -143 -166 -237t-313 -94q-223 0 -369.5 151.5t-146.5 380.5zM254 1536h225l193 -389h-144zM272 604h639q-25 139 -108.5 212t-202.5 73 t-212 -72t-116 -213z" />
<glyph unicode="&#xe9;" horiz-adv-x="1185" d="M86 512q0 231 142.5 381.5t377.5 150.5q238 0 373 -167.5t119 -411.5h-834q4 -139 102.5 -232.5t237.5 -93.5q209 0 297 172h180q-39 -143 -166 -237t-313 -94q-223 0 -369.5 151.5t-146.5 380.5zM272 604h639q-25 139 -108.5 212t-202.5 73t-212 -72t-116 -213z M543 1147l190 389h225l-274 -389h-141z" />
<glyph unicode="&#xea;" horiz-adv-x="1185" d="M86 512q0 231 142.5 381.5t377.5 150.5q238 0 373 -167.5t119 -411.5h-834q4 -139 102.5 -232.5t237.5 -93.5q209 0 297 172h180q-39 -143 -166 -237t-313 -94q-223 0 -369.5 151.5t-146.5 380.5zM272 604h639q-25 139 -108.5 212t-202.5 73t-212 -72t-116 -213z M281 1180v161l325 207l326 -207v-161l-326 206z" />
<glyph unicode="&#xeb;" horiz-adv-x="1185" d="M86 512q0 231 142.5 381.5t377.5 150.5q238 0 373 -167.5t119 -411.5h-834q4 -139 102.5 -232.5t237.5 -93.5q209 0 297 172h180q-39 -143 -166 -237t-313 -94q-223 0 -369.5 151.5t-146.5 380.5zM256 1339.5q0 49.5 35 85t86 35.5q49 0 84 -35.5t35 -85t-35 -84 t-84 -34.5q-51 0 -86 34.5t-35 84zM272 604h639q-25 139 -108.5 212t-202.5 73t-212 -72t-116 -213zM717 1339.5q0 49.5 35.5 85t85 35.5t84 -35.5t34.5 -85t-34.5 -84t-84 -34.5t-85 34.5t-35.5 84z" />
<glyph unicode="&#xec;" horiz-adv-x="509" d="M-98 1536h225l192 -389h-143zM166 0v1024h176v-1024h-176z" />
<glyph unicode="&#xed;" horiz-adv-x="509" d="M166 0v1024h176v-1024h-176zM193 1147l190 389h225l-274 -389h-141z" />
<glyph unicode="&#xee;" horiz-adv-x="509" d="M-72 1180v161l326 207l326 -207v-161l-326 206zM166 0v1024h176v-1024h-176z" />
<glyph unicode="&#xef;" horiz-adv-x="509" d="M-72 1346q0 51 36 86.5t89 35.5q51 0 88 -35.5t37 -86.5q0 -53 -37 -89t-88 -36q-53 0 -89 35.5t-36 89.5zM166 0v1024h176v-1024h-176zM330 1346q0 51 35.5 86.5t89.5 35.5q51 0 88 -35.5t37 -86.5q0 -53 -37 -89t-88 -36q-53 0 -89 35.5t-36 89.5z" />
<glyph unicode="&#xf0;" horiz-adv-x="1241" d="M86 512q0 225 154.5 377.5t373.5 152.5q45 0 109 -12l-96 146h-293v139h198l-149 221h192l150 -221h254v-139h-160l228 -336q111 -168 110 -328q0 -223 -152.5 -377.5t-383.5 -154.5q-227 0 -381 155.5t-154 376.5zM264 512q0 -156 99.5 -262.5t257 -106.5t257 106.5 t99.5 262.5t-99.5 262.5t-257 106.5t-257 -106.5t-99.5 -262.5z" />
<glyph unicode="&#xf1;" horiz-adv-x="1206" d="M166 0v1024h176v-158q104 178 326 178q174 0 280.5 -112.5t106.5 -300.5v-631h-174v604q0 129 -65.5 204t-176.5 75q-127 0 -212 -100.5t-85 -274.5v-508h-176zM254 1214l6 37q16 88 75.5 141.5t141.5 53.5q59 0 148.5 -45t115.5 -45q66 0 88 90h136l-7 -37 q-16 -88 -75.5 -141.5t-141.5 -53.5q-59 0 -148 45.5t-116 45.5q-66 0 -88 -91h-135z" />
<glyph unicode="&#xf2;" horiz-adv-x="1241" d="M84 512q0 223 152.5 377.5t384.5 154.5q229 0 381.5 -154.5t152.5 -377.5t-152.5 -377.5t-381.5 -154.5q-231 0 -384 154.5t-153 377.5zM264 512q0 -156 99.5 -262.5t257 -106.5t256 106.5t98.5 262.5t-98.5 262.5t-256 106.5t-257 -106.5t-99.5 -262.5zM268 1536h226 l192 -389h-143z" />
<glyph unicode="&#xf3;" horiz-adv-x="1241" d="M84 512q0 223 152.5 377.5t384.5 154.5q229 0 381.5 -154.5t152.5 -377.5t-152.5 -377.5t-381.5 -154.5q-231 0 -384 154.5t-153 377.5zM264 512q0 -156 99.5 -262.5t257 -106.5t256 106.5t98.5 262.5t-98.5 262.5t-256 106.5t-257 -106.5t-99.5 -262.5zM559 1147 l191 389h225l-275 -389h-141z" />
<glyph unicode="&#xf4;" horiz-adv-x="1241" d="M84 512q0 223 152.5 377.5t384.5 154.5q229 0 381.5 -154.5t152.5 -377.5t-152.5 -377.5t-381.5 -154.5q-231 0 -384 154.5t-153 377.5zM264 512q0 -156 99.5 -262.5t257 -106.5t256 106.5t98.5 262.5t-98.5 262.5t-256 106.5t-257 -106.5t-99.5 -262.5zM295 1180v161 l326 207l325 -207v-161l-325 206z" />
<glyph unicode="&#xf5;" horiz-adv-x="1241" d="M84 512q0 223 152.5 377.5t384.5 154.5q229 0 381.5 -154.5t152.5 -377.5t-152.5 -377.5t-381.5 -154.5q-231 0 -384 154.5t-153 377.5zM264 512q0 -156 99.5 -262.5t257 -106.5t256 106.5t98.5 262.5t-98.5 262.5t-256 106.5t-257 -106.5t-99.5 -262.5zM264 1214l6 37 q16 88 76 141.5t141 53.5q59 0 148.5 -45t116.5 -45q66 0 88 90h135l-6 -37q-16 -88 -75.5 -141.5t-141.5 -53.5q-59 0 -148.5 45.5t-116.5 45.5q-66 0 -88 -91h-135z" />
<glyph unicode="&#xf6;" horiz-adv-x="1241" d="M84 512q0 223 152.5 377.5t384.5 154.5q229 0 381.5 -154.5t152.5 -377.5t-152.5 -377.5t-381.5 -154.5q-231 0 -384 154.5t-153 377.5zM264 512q0 -156 99.5 -262.5t257 -106.5t256 106.5t98.5 262.5t-98.5 262.5t-256 106.5t-257 -106.5t-99.5 -262.5zM270 1339.5 q0 49.5 35 85t86 35.5q49 0 84 -35.5t35 -85t-35 -84t-84 -34.5q-51 0 -86 34.5t-35 84zM731 1339.5q0 49.5 36 85t85 35.5t84 -35.5t35 -85t-35 -84t-84 -34.5t-85 34.5t-36 84z" />
<glyph unicode="&#xf8;" horiz-adv-x="1261" d="M94 512q0 223 152.5 377.5t384.5 154.5q229 0 381.5 -154.5t152.5 -377.5t-152.5 -377.5t-381.5 -154.5q-231 0 -384 154.5t-153 377.5zM109 61l964 983l80 -79l-963 -985zM274 512q0 -156 99.5 -262.5t257 -106.5t256 106.5t98.5 262.5t-98.5 262.5t-256 106.5 t-257 -106.5t-99.5 -262.5z" />
<glyph unicode="&#xf9;" horiz-adv-x="1185" d="M152 395v629h176v-602q0 -129 62.5 -205t168.5 -76q123 0 204 101.5t81 273.5v508h176v-1024h-176v158q-101 -178 -316 -178q-168 0 -272 113.5t-104 301.5zM231 1536h226l192 -389h-143z" />
<glyph unicode="&#xfa;" horiz-adv-x="1185" d="M152 395v629h176v-602q0 -129 62.5 -205t168.5 -76q123 0 204 101.5t81 273.5v508h176v-1024h-176v158q-101 -178 -316 -178q-168 0 -272 113.5t-104 301.5zM522 1147l191 389h225l-274 -389h-142z" />
<glyph unicode="&#xfb;" horiz-adv-x="1185" d="M152 395v629h176v-602q0 -129 62.5 -205t168.5 -76q123 0 204 101.5t81 273.5v508h176v-1024h-176v158q-101 -178 -316 -178q-168 0 -272 113.5t-104 301.5zM258 1180v161l326 207l325 -207v-161l-325 206z" />
<glyph unicode="&#xfc;" horiz-adv-x="1185" d="M152 395v629h176v-602q0 -129 62.5 -205t168.5 -76q123 0 204 101.5t81 273.5v508h176v-1024h-176v158q-101 -178 -316 -178q-168 0 -272 113.5t-104 301.5zM233 1339.5q0 49.5 35 85t86 35.5q49 0 84 -35.5t35 -85t-35 -84t-84 -34.5q-51 0 -86 34.5t-35 84zM694 1339.5 q0 49.5 36 85t85 35.5t84 -35.5t35 -85t-35 -84t-84 -34.5t-85 34.5t-36 84z" />
<glyph unicode="&#xfd;" horiz-adv-x="1120" d="M16 1024h195l352 -778l350 778h197l-672 -1452h-196l223 481zM502 1147l190 389h226l-275 -389h-141z" />
<glyph unicode="&#xfe;" d="M166 -428v1964h176v-670q53 78 150.5 128t209.5 50q213 0 357.5 -155.5t144.5 -376.5t-144.5 -376.5t-357.5 -155.5q-113 0 -210 50t-150 128v-586h-176zM328 512q0 -158 98 -264.5t249.5 -106.5t250 106.5t98.5 264.5t-98.5 264.5t-250 106.5t-249.5 -106.5t-98 -264.5z " />
<glyph unicode="&#xff;" horiz-adv-x="1120" d="M16 1024h195l352 -778l350 778h197l-672 -1452h-196l223 481zM213 1339.5q0 49.5 35 85t86 35.5q49 0 84 -35.5t35 -85t-35 -84t-84 -34.5q-51 0 -86 34.5t-35 84zM674 1339.5q0 49.5 35.5 85t85 35.5t84 -35.5t34.5 -85t-34.5 -84t-84 -34.5t-85 34.5t-35.5 84z" />
<glyph unicode="&#x152;" horiz-adv-x="2353" d="M92 727q0 315 219 533.5t533 218.5q356 0 561 -267v242h848v-180h-660v-440h537v-181h-537v-473h660v-180h-848v242q-205 -266 -561 -267q-313 0 -532.5 218.5t-219.5 533.5zM285 727q0 -240 160.5 -405.5t398.5 -165.5q240 0 400.5 165.5t160.5 405.5t-161 405.5 t-400 165.5q-238 0 -398.5 -165.5t-160.5 -405.5z" />
<glyph unicode="&#x153;" horiz-adv-x="2074" d="M84 512q0 223 152.5 377.5t384.5 154.5q139 0 252.5 -60t187.5 -165q143 225 434 225q238 0 373 -167.5t119 -411.5h-834q4 -139 102.5 -232.5t237.5 -93.5q209 0 297 172h182q-45 -145 -170 -238t-311 -93q-139 0 -251 59t-179 166q-74 -104 -187.5 -164.5t-252.5 -60.5 q-231 0 -384 154.5t-153 377.5zM264 512q0 -156 99.5 -262.5t257 -106.5t256 106.5t98.5 262.5t-98.5 262.5t-256 106.5t-257 -106.5t-99.5 -262.5zM1161 604h639q-25 139 -108.5 212t-202.5 73t-212 -72t-116 -213z" />
<glyph unicode="&#x178;" horiz-adv-x="1380" d="M31 1454h227l432 -647l434 647h228l-568 -840v-614h-188v616zM340 1726.5q0 49.5 35 85t86 35.5q49 0 84 -35.5t35 -85t-35 -84t-84 -34.5q-51 0 -86 34.5t-35 84zM801 1726.5q0 49.5 35.5 85t85 35.5t84 -35.5t34.5 -85t-34.5 -84t-84 -34.5t-85 34.5t-35.5 84z" />
<glyph unicode="&#x2c6;" horiz-adv-x="0" d="M-326 1180v161l326 207l326 -207v-161l-326 206z" />
<glyph unicode="&#x2dc;" horiz-adv-x="0" d="M-356 1214l6 37q16 88 75.5 141.5t141.5 53.5q59 0 148 -45t116 -45q66 0 88 90h135l-6 -37q-16 -88 -75.5 -141.5t-141.5 -53.5q-59 0 -148 45.5t-116 45.5q-66 0 -88 -91h-135z" />
<glyph unicode="&#x2000;" horiz-adv-x="1017" />
<glyph unicode="&#x2001;" horiz-adv-x="2034" />
<glyph unicode="&#x2002;" horiz-adv-x="1017" />
<glyph unicode="&#x2003;" horiz-adv-x="2034" />
<glyph unicode="&#x2004;" horiz-adv-x="678" />
<glyph unicode="&#x2005;" horiz-adv-x="508" />
<glyph unicode="&#x2006;" horiz-adv-x="339" />
<glyph unicode="&#x2007;" horiz-adv-x="339" />
<glyph unicode="&#x2008;" horiz-adv-x="254" />
<glyph unicode="&#x2009;" horiz-adv-x="406" />
<glyph unicode="&#x200a;" horiz-adv-x="113" />
<glyph unicode="&#x2010;" horiz-adv-x="790" d="M133 485v177h522v-177h-522z" />
<glyph unicode="&#x2011;" horiz-adv-x="790" d="M133 485v177h522v-177h-522z" />
<glyph unicode="&#x2012;" horiz-adv-x="790" d="M133 485v177h522v-177h-522z" />
<glyph unicode="&#x2013;" horiz-adv-x="1157" d="M133 485v177h889v-177h-889z" />
<glyph unicode="&#x2014;" horiz-adv-x="1300" d="M133 485v177h1034v-177h-1034z" />
<glyph unicode="&#x2018;" horiz-adv-x="514" d="M84 1024q0 51 27 92l213 338h116l-137 -293q84 -43 84 -137q0 -61 -45 -107.5t-106 -46.5q-66 0 -109 45.5t-43 108.5z" />
<glyph unicode="&#x2019;" horiz-adv-x="520" d="M98 895l138 293q-37 18 -60.5 56t-23.5 81q0 63 44 108.5t109 45.5q63 0 107.5 -45t44.5 -109q0 -45 -29 -92l-211 -338h-119z" />
<glyph unicode="&#x201a;" horiz-adv-x="524" d="M57 -293l138 293q-84 41 -84 137q0 61 45 107.5t106.5 46.5t106.5 -46t45 -108q0 -45 -29 -92l-211 -338h-117z" />
<glyph unicode="&#x201c;" horiz-adv-x="892" d="M84 1024q0 51 27 92l213 338h116l-137 -293q84 -43 84 -137q0 -61 -45 -107.5t-106 -46.5q-66 0 -109 45.5t-43 108.5zM465 1024q0 51 27 92l213 338h116l-137 -293q84 -43 84 -137q0 -61 -45 -107.5t-107 -46.5q-66 0 -108.5 45.5t-42.5 108.5z" />
<glyph unicode="&#x201d;" horiz-adv-x="901" d="M98 895l138 293q-37 18 -60.5 56t-23.5 81q0 63 44 108.5t109 45.5q63 0 107.5 -45t44.5 -109q0 -45 -29 -92l-211 -338h-119zM479 895l137 293q-37 18 -60.5 56t-23.5 81q0 63 44.5 108.5t109.5 45.5q63 0 107.5 -45t44.5 -109q0 -45 -29 -92l-211 -338h-119z" />
<glyph unicode="&#x201e;" horiz-adv-x="905" d="M57 -293l138 293q-84 41 -84 137q0 61 45 107.5t106.5 46.5t106.5 -46t45 -108q0 -45 -29 -92l-211 -338h-117zM438 -293l137 293q-84 41 -83 137q0 61 45 107.5t106.5 46.5t106.5 -46t45 -108q0 -45 -29 -92l-211 -338h-117z" />
<glyph unicode="&#x2022;" horiz-adv-x="858" d="M150 618.5q0 116.5 81.5 197.5t196.5 81q117 0 199 -81t82 -197.5t-82 -197.5t-199 -81q-115 0 -196.5 81t-81.5 197.5z" />
<glyph unicode="&#x2026;" horiz-adv-x="1476" d="M96 137q0 61 45 107.5t106.5 46.5t106.5 -46t45 -108q0 -63 -44 -108t-107.5 -45t-107.5 45t-44 108zM586 137q0 61 45 107.5t106.5 46.5t106.5 -46t45 -108q0 -63 -44 -108t-107.5 -45t-107.5 45t-44 108zM1079 137q0 61 45 107.5t106.5 46.5t106.5 -46t45 -108 q0 -63 -44 -108t-107.5 -45t-107.5 45t-44 108z" />
<glyph unicode="&#x202f;" horiz-adv-x="406" />
<glyph unicode="&#x2039;" horiz-adv-x="622" d="M88 512l289 444h149l-237 -444l237 -444h-149z" />
<glyph unicode="&#x203a;" horiz-adv-x="622" d="M96 68l238 444l-238 444h150l289 -444l-289 -444h-150z" />
<glyph unicode="&#x205f;" horiz-adv-x="508" />
<glyph unicode="&#x20ac;" horiz-adv-x="1830" d="M68 520l53 111h180q-4 20 -4 96q0 51 6 100h-235l53 113h205q66 242 264 390.5t461 148.5q236 0 420 -122t270 -333h-195q-74 133 -203 208t-292 75q-193 0 -335.5 -99.5t-205.5 -267.5h860l-51 -113h-838q-8 -43 -8 -100q0 -51 6 -96h746l-49 -111h-670 q61 -170 205.5 -271.5t339.5 -101.5q164 0 293 75t202 208h195q-86 -211 -270.5 -333t-419.5 -122q-260 0 -461 150.5t-266 394.5h-256z" />
<glyph unicode="&#x2122;" horiz-adv-x="1716" d="M70 1311v143h606v-143h-230v-645h-147v645h-229zM809 666v788h139l232 -330l233 330h139v-788h-143v542l-227 -323l-230 323v-542h-143z" />
<glyph unicode="&#x25fc;" horiz-adv-x="1024" d="M0 0v1024h1024v-1024h-1024z" />
<glyph unicode="&#xfb01;" horiz-adv-x="1259" d="M35 862v162h217v207q0 154 86 235.5t227 81.5q84 0 160 -26v-156q-47 20 -127 20q-88 0 -129 -38.5t-41 -135.5v-188h297v-162h-297v-862h-176v862h-217zM881 1423q0 51 36.5 88t90 37t88 -36.5t34.5 -88.5q0 -53 -34.5 -89t-88 -36t-90 36t-36.5 89zM918 0v1024h176 v-1024h-176z" />
<glyph unicode="&#xfb02;" horiz-adv-x="1259" d="M35 862v162h217v207q0 154 86 235.5t227 81.5q84 0 160 -26v-156q-47 20 -127 20q-88 0 -129 -38.5t-41 -135.5v-188h297v-162h-297v-862h-176v862h-217zM918 0v1536h176v-1536h-176z" />
<glyph unicode="&#xfb03;" horiz-adv-x="1978" d="M35 862v162h217v211q0 154 86 233.5t227 79.5q84 0 160 -26v-156q-43 20 -127 20q-88 0 -129 -38.5t-41 -135.5v-188h252v-162h-252v-862h-176v862h-217zM793 862v162h176v211q0 154 86 233.5t227 79.5q84 0 160 -26v-156q-47 20 -129 20q-88 0 -128 -38.5t-40 -135.5 v-188h297v-162h-297v-862h-176v862h-176zM1597 1423q0 51 37 88t90.5 37t88 -36.5t34.5 -88.5q0 -53 -34.5 -89t-88 -36t-90.5 36t-37 89zM1634 0v1024h176v-1024h-176z" />
<glyph unicode="&#xfb04;" horiz-adv-x="1978" d="M35 862v162h217v211q0 154 86 233.5t227 79.5q84 0 160 -26v-156q-43 20 -127 20q-88 0 -129 -38.5t-41 -135.5v-188h252v-162h-252v-862h-176v862h-217zM793 862v162h176v211q0 154 86 233.5t227 79.5q84 0 160 -26v-156q-47 20 -129 20q-88 0 -128 -38.5t-40 -135.5 v-188h297v-162h-297v-862h-176v862h-176zM1634 0v1536h176v-1536h-176z" />
</font>
</defs>
</svg>
